Double-J | • Grace and Frankie (Türkçe Dublaj) 7.4 | Beautiful Moves (Shifting Steel Book 3)

TV - Other

Heimebane (2018) S01 E10 (Finale) - 720p x265 HEVC - NOR (ENG SUBS) [BRSHNKV]

  • Download 5x Faster
  • Download torrent
  • Direct Download
  • Rate this torrent +  |  -

Torrent info

Name:Heimebane (2018) S01 E10 (Finale) - 720p x265 HEVC - NOR (ENG SUBS) [BRSHNKV]

Total Size: 502.55 MB

Magnet: Magnet Link

Seeds: 4

Leechers: 9

Stream: Watch Full Movie @ Movie4u

Last Updated: 2018-07-07 13:10:58 (Update Now)

Torrent added: 2018-07-07 14:10:56



CyberGhost VPN For Torrents

Torrent Files List


Heimebane S01 E10 - x265 [BRSHNKV] .mp4 (Size: 502.55 MB) (Files: 3)

 Heimebane S01 E10 - x265 [BRSHNKV] .mp4

502.48 MB

 Heimebane S01 E10 - x265 [BRSHNKV] .ass

39.32 KB

 Heimebane S01 E10 - x265 [BRSHNKV] .srt

32.55 KB
 

tracker

leech seeds
 

Torrent description

http://www.imdb.com/title/tt7766104/?ref_=rvi_tt



*************




Video
ID : 1
Format : HEVC
Format/Info : High Efficiency Video Coding
Format profile : Main [email protected]@Main
Codec ID : hev1
Codec ID/Info : High Efficiency Video Coding
Duration : 55mn 15s
Bit rate : 1 101 Kbps
Width : 1 280 pixels
Height : 720 pixels
Display aspect ratio : 16:9
Frame rate mode : Constant
Frame rate : 25.000 fps
Color space : YUV
Chroma subsampling : 4:2:0
Bit depth : 10 bits
Bits/(Pixel*Frame) : 0.048
Stream size : 435 MiB (87%)
Writing library : x265 1.9:[Mac OS X][clang 7.0.2][64 bit] 10bit
Encoded date : UTC 2018-07-04 17:50:22
Tagged date : UTC 2018-07-04 17:50:22
Color range : Limited
Color primaries : BT.709
Transfer characteristics : BT.709
Matrix coefficients : BT.709

Audio
ID : 2
Format : AAC
Format/Info : Advanced Audio Codec
Format profile : LC
Codec ID : 40
Duration : 55mn 15s
Bit rate mode : Variable
Bit rate : 165 Kbps
Channel(s) : 2 channels
Channel positions : Front: L R
Sampling rate : 48.0 KHz
Compression mode : Lossy
Stream size : 65.1 MiB (13%)
Title : Stereo / Stereo
Language : Norwegian
Encoded date : UTC 2018-07-04 17:50:22
Tagged date : UTC 2018-07-04 17:50:22

related torrents

Torrent name

health leech seeds Size
 


comments (0)

Main Menu