Jurassic World Fallen Kingdom (2018) 720p BDRip Free Streaming | Shooter - S03Duration: 1h | Crank 2 High Voltage

Doctor Who

Children in Need 2009 Doctor Who Christmas Teaser 576p HDTV AAC 2 0 x264 TheSponge

  • Download 5x Faster
  • Download torrent
  • Direct Download
  • Rate this torrent +  |  -

Torrent info

Name:Children in Need 2009 Doctor Who Christmas Teaser 576p HDTV AAC 2 0 x264 TheSponge

Total Size: 29.92 MB

Magnet: Magnet Link

Seeds: 0

Leechers: 0

Stream: Watch Full Movie @ Movie4u

Last Updated: 2018-04-17 11:26:40 (Update Now)

Torrent added: 2009-11-21 18:03:33



CyberGhost VPN For Torrents

Torrent Files List


Children.in.Need.2009.Doctor.Who.Christmas.Teaser.576p.HDTV.AAC.2.0.x264-TheSponge.mp4 (Size: 29.92 MB) (Files: 1)

 Children.in.Need.2009.Doctor.Who.Christmas.Teaser.576p.HDTV.AAC.2.0.x264-TheSponge.mp4

29.92 MB
 

tracker

leech seeds
 

Torrent description

--------------------Release Info--------------------

General
Complete name : Children.in.Need.2009.Doctor.Who.Christmas.Teaser.576p.HDTV.AAC.2.0.x264-TheSponge.mp4
Encoded by : CHerron
Format : MPEG-4
Format profile : Base Media / Version 2
Codec ID : mp42
File size : 29.9 MiB
Duration : 3mn 13s
Overall bit rate : 1 298 Kbps

--------------------Technical Info------------------

Video
Format : AVC
Format/Info : Advanced Video Codec
Format profile : [email protected]
Format settings, CABAC : Yes
Format settings, ReFrames : 3 frames
Codec ID : avc1
Codec ID/Info : Advanced Video Coding
Duration : 3mn 13s
Bit rate mode : Variable
Bit rate : 1 133 Kbps
Width : 720 pixels
Height : 576 pixels
Display dimension : 1024x576
Display aspect ratio : 16/9
Frame rate mode : Constant
Frame rate : 25.000 fps
Standard : PAL
Resolution : 24 bits
Colorimetry : 4:2:0
Scan type : Progressive
Bits/(Pixel*Frame) : 0.109
Stream size : 26.2 MiB (87%)
Writing library : x264 core 75
Encoding settings : cabac=1 / ref=3 / deblock=1:0:0 / analyse=0x3:0x133 / me=umh / subme=6 / psy=1 / psy_rd=1.0:1.0 / mixed_ref=1 / me_range=16 / chroma_me=1 / trellis=1 / 8x8dct=1 / cqm=0 / deadzone=21,11 / chroma_qp_offset=-4 / threads=6 / nr=0 / decimate=1 / mbaff=0 / bframes=3 / b_pyramid=0 / b_adapt=1 / b_bias=0 / direct=3 / wpredb=1 / keyint=250 / keyint_min=25 / scenecut=40 / rc_lookahead=40 / rc=2pass / mbtree=1 / bitrate=1133 / ratetol=1.0 / qcomp=0.60 / qpmin=10 / qpmax=51 / qpstep=4 / cplxblur=20.0 / qblur=0.5 / ip_ratio=1.40 / aq=1:1.00

Audio
Format : AAC
Format/Info : Advanced Audio Codec
Format version : Version 4
Format profile : LC
Format settings, SBR : No
Codec ID : 40
Duration : 3mn 12s
Bit rate mode : Variable
Bit rate : 160 Kbps
Maximum bit rate : 180 Kbps
Channel(s) : 2 channels
Channel positions : L R
Sampling rate : 48.0 KHz
Resolution : 16 bits
Stream size : 3.67 MiB (12%)

--------------------Contact Info--------------------

Website: http://www.tv-irc.net/
IRC: #TV-Encodes @ irc.vision-irc.net

related torrents

Torrent name

health leech seeds Size
 


comments (0)

Main Menu